#TITLE:Kidosenkan Nadesico;
#SUBTITLE:- You Get to Burning (OP1 Para Para Mix);
#ARTIST:Yumi Matsuzawa;
#TITLETRANSLIT:;
#SUBTITLETRANSLIT:;
#ARTISTTRANSLIT:;
#CREDIT:;
#BANNER:nadesico-logo.jpg;
#BACKGROUND:nadesico-bg.jpg;
#LYRICSPATH:trance.lrc;
#CDTITLE:cdtitle02.png;
#MUSIC:02._kidosenkan_nadesico_-_you_get_to_burning.mp3;
#OFFSET:1.000;
#SAMPLESTART:37.705;
#SAMPLELENGTH:12.000;
#SELECTABLE:YES;
#BPMS:0.000=155.020;
#STOPS:;
#BGCHANGES:;
// cache tags:
#FIRSTBEAT:4.000;
#LASTBEAT:235.250;
#SONGFILENAME:Songs/nhac/[Tweety3187] You Get to Burning (Para Para Mix) - Kidosenkan Nadesico 1st OP/trance.sm;
#HASMUSIC:1;
#HASBANNER:1;
#MUSICLENGTH:90.122;
// end cache tags

//---------------dance-single - ----------------
#NOTES:
     dance-single:
     :
     Challenge:
     14:
     1.000,1.000,1.000,0.155,1.000,834.000,467.000,14.000,0.000,0.000:
0000
0000
0000
0000
,
0000
0000
1001
0000
0000
1001
0000
0000
1001
0000
0000
1001
0000
0000
1001
0000
,
0010
0100
0010
0100
0010
0100
0010
0100
0010
0100
0010
0100
0010
0100
0010
0100
0010
0100
0010
0100
0010
0100
0010
0100
0010
0100
0010
0100
0010
0100
0010
0100
,
1100
0000
0011
0101
1000
0110
0110
0110
1001
0000
1010
1010
0100
0011
0011
0000
,
1001
0000
0101
0101
0010
1010
1010
1010
0101
0000
0110
1100
0001
0110
1100
0110
,
1001
0000
1010
0101
0010
1100
0101
0110
1100
0000
0101
0110
1000
0110
0110
0000
,
1001
0000
0101
0110
0010
1100
1100
1100
1100
0000
0101
0110
0001
1010
1010
0000
,
0101
0000
1010
0011
0100
1001
1001
1001
0110
0000
1100
1100
0001
1010
1010
0000
,
0110
0000
0011
0011
1000
1100
1100
1100
0011
0000
1001
0101
0010
1001
0101
1001
,
0110
0000
1100
0011
1000
0101
0011
1001
0101
0000
0011
1001
0100
1001
1001
0000
,
1100
1100
1100
1100
0101
0101
0101
0101
1001
0110
1001
0110
0011
1100
0011
1100
,
0011
0000
1010
0001
0110
1000
0011
1100
0010
0000
0110
0001
1010
0100
1010
0001
,
0110
1000
0011
1000
0101
0010
0101
0100
1010
0100
0011
1000
0101
0001
0110
1100
,
1100
0000
1001
1001
0000
0101
0102
0010
0100
1000
0100
0010
0100
0010
0103
0010
,
1001
0100
0010
0001
1010
0100
0010
0100
0011
0100
0001
0010
1100
0010
0100
0010
,
1001
0000
0110
0001
1010
0000
1100
0011
0001
0000
0110
0001
1010
0100
0011
0100
,
1001
0010
1100
0010
0101
0010
1100
0001
1010
1000
0110
0001
1010
0100
0012
0100
,
1003
0000
2010
0010
0010
0001
0010
0100
0001
0010
3100
0001
0110
1000
0001
0010
,
1100
0000
0001
0000
0100
0000
1000
0000
0011
0000
0100
0000
0010
0000
0001
0000
1010
0000
0000
0000
0110
0000
0000
0000
0011
1000
0010
1000
0010
1000
0010
1000
,
0011
0000
1100
0010
0101
1000
0110
1001
0100
0000
0101
0010
1100
0001
1100
0010
,
0101
1000
0110
1000
0011
0100
0011
0001
1100
0001
0110
1000
0011
0010
0101
1001
,
1001
0000
1010
1010
0000
0011
0021
0100
0001
1000
0001
0100
0001
0100
0031
0100
,
1010
0001
0100
0010
1100
0001
0100
0001
0110
0001
0010
0100
1001
0100
0001
0100
,
1010
0000
0101
0010
1100
0000
1001
0110
0010
0000
0101
0010
1100
0001
0110
0001
,
1010
0100
1001
0100
0011
0100
1001
0010
1100
1000
0101
0010
1100
0001
0120
0001
,
1030
0000
2100
0100
0100
0010
0100
0001
0010
0100
3001
0010
0101
1000
0010
0100
,
1001
0010
0001
1000
0110
0001
0100
0010
1100
0010
0001
1000
0110
0001
0100
0010
,
1001
0010
0110
1000
0011
0000
1100
1100
1000
0000
0100
0000
0010
0000
0101
0010
,
0100
0000
0110
0001
0010
0000
1100
1000
1000
0000
0110
1000
0001
0000
0012
0010
,
0010
0000
0100
0100
0100
0100
0000
1000
0000
1000
0000
1000
0000
0010
0013
0010
,
0010
1000
0100
0010
0001
1000
0100
0001
0110
0000
1001
0100
0011
0001
1010
0100
,
0011
0100
0001
1010
0001
0000
1010
0100
0010
0001
0100
1000
0011
0000
0101
1000
,
0110
0001
0100
1010
0001
0000
0010
0001
0100
1000
0011
1000
0110
0000
1100
0010
,
1001
1000
1000
0011
0011
0000
0110
0001
1100
0100
0100
0011
0011
0000
1001
1001
,
0110
0000
0000
0000
0110
0000
0000
0000
1001
0000
0000
0000
1001
0000
0000
0000
0001
1000
0001
1000
0001
1000
0001
1000
0001
0010
0100
1000
0001
0010
0100
1000
,
0101
0101
1010
1010
0110
0000
0011
0101
0000
1010
1010
0000
0110
0001
1010
0001
,
0110
0011
1100
1010
0011
0000
0101
1010
0000
0110
0110
0000
1010
0100
1001
0010
,
0101
0101
0101
0110
0110
0000
1100
1100
0000
0110
0110
0000
1001
0010
0101
1000
,
0110
0110
0101
1100
0011
0000
0110
1100
0000
0011
0110
0000
0101
0101
1010
1010
,
0110
1001
0110
0011
1100
0000
0101
0011
0000
1010
1010
0000
0210
0000
0001
0300
,
1010
1100
0110
0011
1100
0000
0101
0101
0000
1010
0110
0000
0012
0000
0100
0003
,
1010
0110
1001
0011
0101
0000
1010
1010
0000
0011
0110
0000
2100
0000
0010
3000
,
0110
0000
0011
0000
0011
0000
0011
0000
0011
0000
0000
0000
1010
0000
1010
0000
0000
0000
0110
0000
0110
0000
0000
0000
0001
1000
0001
1000
1001
0000
1001
0000
,
0011
0011
1100
1100
0101
0000
0110
0011
0000
1100
1100
0000
0101
0010
1100
0010
,
0101
0110
1001
1100
0110
0000
0011
1100
0000
0101
0101
0010
1100
0001
1010
0100
,
0011
0000
1010
1010
0000
0110
0210
0001
0010
0001
0010
0001
0310
0000
0101
0101
,
1010
0001
0010
1100
0010
0000
2100
0001
3010
0000
0012
0100
1003
0000
0011
0011
,
1001
0010
0100
0011
0011
1000
0110
0010
0101
0010
0100
1010
1010
0001
0110
0001
,
1100
0010
1000
0110
0110
1000
0011
1000
0101
0010
0100
1010
1010
0100
2010
0001
,
0100
0001
0100
0001
0100
0001
0100
0001
0010
0001
0010
0001
0010
0001
0010
3001
,
0110
0000
0000
0000
0000
0000
0000
0000
0000
0000
0000
0000
0000
0000
0000
0000
0001
0010
0100
1000
0001
0010
0100
1000
0001
0010
0100
1000
0001
0010
0100
1000
0001
0000
0010
0000
0100
0000
1000
0000
0001
0000
0010
0000
0100
0000
1000
0000
1001
0000
0000
0000
1001
0000
0000
0000
1001
0000
0000
0000
1001
0000
0000
0000
,
1001
0000
0110
0011
1000
0101
0101
0101
1010
0000
1100
1100
0001
0110
0110
0000
,
1010
0000
0011
0011
0100
1100
1100
1100
0011
0000
0101
1001
0010
0101
1001
0101
,
1010
0000
1100
0011
0100
1001
0011
0101
1001
0000
0011
0101
1000
0101
0101
0000
,
1010
0000
0011
0101
0100
1001
1001
1001
1001
0000
0011
0101
0010
1100
1100
0000
,
0011
0000
1100
0110
0001
1010
1010
1010
0101
0000
1001
1001
0010
1100
1100
0000
,
0101
0000
0110
0110
1000
1001
1001
1001
0110
0000
1010
0011
0100
1010
0011
1010
,
0101
0000
1001
0110
1000
0011
0110
1010
0011
0000
0110
1010
0001
1010
1010
0000
,
1001
1001
1001
1001
1001
0000
1010
1010
1010
0000
0110
0000
1100
1100
0000
0000
;

//---------------dance-single - Copied from----------------
#NOTES:
     dance-single:
     Copied from:
     Edit:
     15:
     1.000,1.000,1.000,0.155,1.000,895.000,472.000,14.000,0.000,1.000:
0000
0000
0000
0000
,
0000
0000
0101
0000
0000
0101
0000
0000
0101
0000
0000
0101
0000
0000
0101
0000
,
0010
1000
0010
1000
0010
1000
0010
1000
0010
1000
0010
1000
0010
1000
0010
1000
0010
1000
0010
1000
0010
1000
0010
1000
0010
1000
0010
1000
0010
1000
0010
1000
,
1001
0000
0110
1100
0001
1010
1010
1010
0101
0000
0011
0011
1000
0110
0110
0000
,
0101
0000
1100
1100
0010
0011
0011
0011
1100
0000
1010
1001
0100
1010
1001
1010
,
0101
0000
0011
1100
0010
1001
1100
1010
1001
0000
1100
1010
0001
1010
1010
0000
,
0101
0000
1100
1010
0010
1001
1001
1001
1001
0010
1100
1010
0100
0011
0011
0100
,
1100
0000
0011
0110
1000
0101
0101
0101
1010
0000
1001
1001
0100
0011
0011
0000
,
1010
0000
0110
0110
0001
1001
1001
1001
0110
0000
0101
1100
0010
0101
1100
0101
,
1010
0000
1001
0110
0001
1100
0110
0101
1100
0000
0110
0101
1000
0101
0101
0000
,
1001
1001
1001
1001
1100
1100
1100
1100
0101
1010
0101
1010
0110
1001
0110
1001
,
0110
1000
0011
0100
1010
0001
0110
1001
0010
0001
1010
0100
0011
1000
0011
0100
,
1010
0001
0110
0001
1100
0010
1100
1000
0011
1000
0110
0001
1100
0100
1010
1001
,
1001
0010
0101
0101
0010
1100
1200
0010
1000
0001
1000
0010
1000
0010
1300
0010
,
0101
1000
0010
0100
0011
1000
0010
1000
0110
1000
0100
0010
1001
0010
1000
0010
,
0101
1000
1010
0100
0011
0100
1001
0110
0100
0001
1010
0100
0011
1000
0110
1000
,
0101
0010
1001
0010
1100
0010
1001
0100
0011
0001
1010
0100
0011
1000
0210
1000
,
0301
1000
0012
0010
0010
0100
0010
1000
0100
0010
1003
0100
1010
0001
0100
0010
,
1001
0000
0100
0000
1000
0000
0001
0000
0110
0000
1000
0000
0010
0000
0100
0000
0011
0000
0100
0000
1010
0000
1000
0000
0110
0001
0010
0001
0010
0001
0010
0001
,
0110
0100
1001
0010
1100
0001
1010
0101
1000
0010
1100
0010
1001
0100
1001
0010
,
1100
0001
1010
0001
0110
1000
0110
0100
1001
0100
1010
0001
0110
0010
1100
0101
,
0101
1000
0011
0011
1000
0110
0120
1000
0100
0001
0100
1000
0100
1000
0130
1000
,
0011
0100
1000
0010
1001
0100
1000
0100
1010
0100
0010
1000
0101
1000
0100
1000
,
0011
0000
1100
0010
1001
0000
0101
1010
0010
0001
1100
0010
1001
0100
1010
0100
,
0011
1000
0101
1000
0110
1000
0101
0010
1001
0001
1100
0010
1001
0100
1020
0101
,
0031
0100
1002
1000
1000
0010
1000
0100
0010
1000
0103
0010
1100
0001
0010
1000
,
0101
0010
0100
0001
1010
0100
1000
0010
1001
0010
0100
0001
1010
0100
1000
0010
,
0101
0010
1010
0001
0110
0000
1001
1001
0001
0010
1100
0001
1010
0000
1100
0010
,
1000
0001
1010
0100
1010
0000
1001
0001
0001
0100
1010
0001
1100
0000
0210
0010
,
0010
0001
1000
1000
1000
1000
0000
0001
0010
0001
0010
0001
0010
0010
0310
0010
,
0010
0001
1000
0010
0100
0001
1000
0100
1010
0000
0101
1000
0110
0100
0011
1000
,
0110
1000
0100
0011
0100
0000
0011
1000
0010
0100
1000
0001
0110
0000
1100
0001
,
1010
0100
1000
0011
0100
0000
0010
0100
1000
0001
0110
0001
1010
0000
1001
0010
,
0101
0001
0001
0110
0110
0001
1010
0100
1001
1000
1000
0110
0110
1000
0101
0101
,
1010
0000
0000
0000
1010
0000
0000
0000
0101
0000
0000
0000
0101
0000
0000
0000
0100
0001
0100
0001
0100
0001
0100
0001
0100
0010
1000
0001
0100
0010
1000
0001
,
1100
1100
0011
0011
1010
0001
0110
1100
0100
0011
0011
0100
1010
0100
0011
0100
,
1010
0110
1001
0011
0110
0001
1100
0011
0100
1010
1010
0100
0011
1000
0101
0010
,
1100
1100
1100
1010
1010
0100
1001
1001
0100
1010
1010
0001
0101
0010
1100
0001
,
1010
1010
1100
1001
0110
0001
1010
1001
1000
0110
1010
0001
1100
1100
0011
0011
,
1010
0101
1010
0110
1001
0010
1100
0110
1000
0011
0011
0100
2010
0000
0100
3000
,
0011
1001
1010
0110
1001
0010
1100
1100
0100
0011
1010
0001
0210
0001
1000
1300
,
0011
1010
0101
0110
1100
0100
0011
0011
1000
0110
1010
0100
1002
0100
0010
0103
,
1010
0000
0110
0000
0110
0000
0110
0000
0110
0000
0000
0000
0011
0000
0011
0000
0000
0000
1010
0000
1010
0000
0000
0000
0100
0001
0100
0001
0101
0000
0101
0000
,
0110
0110
1001
1001
1100
0001
1010
0110
0010
1001
1001
0010
1100
0010
1001
0010
,
1100
1010
0101
1001
1010
0001
0110
1001
0010
1100
1100
0010
1001
0100
0011
1000
,
0110
0000
0011
0011
0000
1010
2010
0100
0010
0100
0010
0100
3010
0001
1100
1100
,
0011
0100
0010
1001
0010
0100
1002
0100
0013
0000
0210
1000
0301
1000
0110
0110
,
0101
0010
1000
0110
0110
0001
1010
0010
1100
0010
1000
0011
0011
0100
1010
0100
,
1001
0010
0001
1010
1010
0001
0110
0001
1100
0010
1000
0011
0011
1000
0012
0100
,
1000
0100
1000
0100
1000
0100
1000
0100
0010
0100
0010
0100
0010
0100
0010
0103
,
1010
0000
0000
0000
0000
0000
0000
0000
0000
0000
0000
0000
0000
0000
0000
0000
0100
0010
1000
0001
0100
0010
1000
0001
0100
0010
1000
0001
0100
0010
1000
0001
0100
0000
0010
0000
1000
0000
0001
0000
0100
0000
0010
0000
1000
0000
0001
0000
0101
0000
0000
0000
0101
0000
0000
0000
0101
0000
0000
0000
0101
0000
0000
0000
,
0101
0000
1010
0110
0001
1100
1100
1100
0011
0000
1001
1001
0100
1010
1010
0000
,
0011
0000
0110
0110
1000
1001
1001
1001
0110
0000
1100
0101
0010
1100
0101
1100
,
0011
0000
1001
0110
1000
0101
0110
1100
0101
0000
0110
1100
0001
1100
1100
0000
,
0011
0000
0110
1100
1000
0101
0101
0101
0101
0000
0110
1100
0010
1001
1001
0000
,
0110
0000
1001
1010
0100
0011
0011
0011
1100
0000
0101
0101
0010
1001
1001
0000
,
1100
0000
1010
1010
0001
0101
0101
0101
1010
0000
0011
0110
1000
0011
0110
0011
,
1100
0000
0101
1010
0001
0110
1010
0011
0110
0000
1010
0011
0100
0011
0011
0000
,
0101
0101
0101
0101
0101
0000
0011
0011
0011
0000
1010
0000
1001
1001
0000
0000
;

//---------------dance-single - ----------------
#NOTES:
     dance-single:
     :
     Hard:
     10:
     1.000,1.000,1.000,0.599,1.000,628.000,205.000,54.000,0.000,0.000:
0000
0000
0000
0000
,
0000
0000
1001
0000
0000
1001
0000
0000
1001
0000
0000
1001
0000
0000
1001
0000
,
0000
0000
0011
0000
0000
0011
0000
0000
0011
0000
0000
0011
0000
0000
0011
0000
,
1010
0000
0100
0100
0000
0001
0001
0001
1010
0000
0100
0100
0000
0010
0010
0000
,
1100
0000
1000
1000
0000
0001
0001
0001
1010
0000
0100
0100
0000
0001
0001
0001
,
0110
0000
0010
0010
0000
0100
0100
0100
1001
0000
0100
0100
0000
0001
0001
0000
,
1100
0000
0001
0001
0000
0010
0010
0010
1100
0000
0100
0100
0000
1000
1000
1000
,
1100
0000
0001
0001
0000
0010
0010
0010
1100
0000
0001
0001
0000
1000
1000
0000
,
0101
0000
0100
0100
0000
0010
0010
0010
1100
0000
0001
0001
0000
0010
0010
0010
,
1001
0000
1000
1000
0000
0001
0001
0001
0110
0000
0001
0001
0000
0010
0010
0000
,
0001
0010
0100
1000
1000
0100
0010
0001
0001
0010
0100
1000
1000
0100
0010
0001
,
1001
0000
0010
0000
0100
0011
0011
0000
0000
0000
0011
0000
1100
0000
0101
0000
,
1010
0000
0101
0000
0011
0000
1100
0000
0101
0000
0110
0000
1001
0000
0101
0101
,
0202
0000
0303
0022
0000
0033
2001
0000
0010
0001
0010
0001
0010
0100
0010
3001
,
0010
0100
1000
0100
0010
0001
0010
0100
1000
0001
1000
0001
1000
0010
1000
0010
,
0101
0000
0010
0000
1000
0000
0110
0110
0000
0000
0101
0000
1010
0000
0101
0000
,
0011
1001
1001
0110
1100
0011
0110
2020
,
0000
3030
0102
0000
1000
0100
1000
0100
0010
0100
0010
0100
1000
0010
1000
0013
,
0110
1000
0100
0010
0100
0010
0001
1000
0011
0000
1100
0000
0101
0000
1010
0000
,
0110
0000
0010
0000
0100
0000
0101
1010
0000
0000
1100
0000
1100
0000
1100
0000
,
0011
0000
0110
0000
0011
0000
0011
0000
1010
0000
0101
0000
0110
0000
1100
1001
,
2002
0000
3003
0220
0000
0330
0012
0000
1000
0100
0010
0100
1000
0100
0010
0103
,
1000
0100
0010
0100
0010
0001
0010
0100
0001
1000
0100
0010
1000
0001
0100
0010
,
1100
0000
0010
0000
0001
0000
1010
1100
0000
0000
0110
0000
1010
0000
0011
0000
,
0101
0101
0110
1100
1010
1001
0110
0022
,
0000
0033
2010
0000
0001
0010
0001
0010
0001
0010
0001
0010
0100
0001
0010
3100
,
0001
0010
0100
1000
0100
0010
0100
0010
0100
0010
0100
0010
0100
0010
0100
0010
,
1001
0000
0010
0000
0101
0000
0110
2100
0001
0000
0001
0000
3010
0000
0102
0000
,
0010
0003
2010
0000
0100
3000
0120
0000
0001
0030
2001
0000
0100
3000
0011
0011
,
0012
0100
1000
0100
1000
0010
1000
0010
1000
0100
0010
0100
0010
1000
0010
1000
,
0013
0100
0010
0001
1000
0010
0100
0001
1000
0100
0010
0001
1000
0100
1000
0001
,
0010
0100
0010
0100
0010
0001
0010
0100
0001
0010
0100
0010
0001
0010
0100
1000
,
0100
0010
0100
0010
0100
1000
0100
0010
1000
0010
1000
0010
0001
0100
0001
0100
,
0001
0010
0100
1000
1000
0000
1000
0000
1000
0100
0010
0001
0001
0000
0001
0000
,
1010
0000
1010
0000
0101
0000
0101
0000
0001
0010
0100
1000
0001
0010
0100
1000
,
0101
0000
0101
0000
0110
0000
1100
1100
0000
0000
0012
0000
1000
0100
1000
0100
,
1003
0000
0101
0000
0110
0000
1010
1010
0000
0000
0101
0000
0101
0000
0110
0000
,
0022
0000
0033
2020
0000
3030
2020
0000
0000
0000
0000
3030
0011
0000
0012
0100
,
1003
0000
0022
0000
0000
0033
2001
0000
0010
0010
0010
3000
0001
0010
0100
0010
,
1100
0000
0011
0000
0110
0000
1001
1001
0100
0000
0110
0000
0011
0000
0101
0010
,
0100
1010
1010
0110
1000
0011
0110
2001
,
0001
0001
3001
0110
1000
0011
0101
0102
,
0010
0100
0010
0100
0010
0100
1000
0103
1000
0100
0010
0001
0010
0100
0010
0100
,
0101
0000
0101
0000
0110
0000
1100
1100
0000
0000
0012
0000
1000
0100
1000
0100
,
1003
0000
0101
0000
0110
0000
1010
1010
0000
0000
0101
0000
0101
0000
0110
0000
,
0022
0000
0033
2020
0000
3030
2020
0000
0000
0000
0000
3030
0011
0000
1010
1010
,
0202
0000
0303
2020
0000
3030
0110
0001
0001
0000
0210
0000
0310
0000
1001
1001
,
1001
0000
0010
0000
0011
0000
0100
0010
1001
0000
0001
0000
0110
0000
0001
0100
,
1001
0000
0100
0000
0010
0000
1000
0100
1010
0000
0100
0000
0001
0000
2010
0000
,
0001
0100
0001
0100
0001
0100
0001
0100
0001
0010
0001
0010
0001
0010
0001
3010
,
0001
0000
0020
0000
0230
0000
2300
0000
3200
0000
2300
0000
3002
0000
0000
0003
,
1010
0000
0100
0100
0000
0001
0001
0001
1010
0000
0100
0100
0000
0010
0010
0000
,
1100
0000
1000
1000
0000
0001
0001
0001
1010
0000
0100
0100
0000
0001
0001
0001
,
0110
0000
0010
0010
0000
0100
0100
0100
1001
0000
0100
0100
0000
0001
0001
0000
,
1100
0000
0001
0001
0000
0010
0010
0010
1100
0000
0100
0100
0000
1000
1000
1000
,
1100
0000
0001
0001
0000
0010
0010
0010
1100
0000
0001
0001
0000
1000
1000
0000
,
0101
0000
0100
0100
0000
0010
0010
0010
1100
0000
0001
0001
0000
0010
0010
0010
,
1001
0000
1000
1000
0000
0001
0001
0001
0110
0000
0001
0001
0000
0010
0010
0000
,
1001
1001
1001
1001
1001
0000
0101
0101
0101
0000
0101
0000
1100
1100
0000
0000
;

//---------------dance-single - ----------------
#NOTES:
     dance-single:
     :
     Medium:
     7:
     0.493,0.554,0.189,0.055,0.022,289.000,17.000,5.000,0.000,0.000:
0000
0000
0000
0000
,
0000
0000
1000
0000
0000
1000
0000
0000
1000
0000
0000
1000
0000
0000
1000
0000
,
0000
0000
0001
0000
0000
0001
0000
0000
0001
0000
0000
0001
0000
0000
0001
0000
,
1000
0100
0001
0010
,
0001
0000
0010
0000
0100
0000
0001
1000
,
0001
0100
0010
0100
,
0001
0000
1000
0000
0010
0000
1000
0100
,
1000
0001
0100
0010
,
0100
0000
0010
0000
0100
0000
0010
0010
,
0010
0100
0001
1000
,
0100
0001
0100
0001
,
0001
0001
0001
0000
0010
0010
0010
0000
,
1000
1000
1000
0000
0100
0100
0100
0000
,
0001
0001
0001
0000
1000
1000
1000
0000
,
0010
0010
0010
0000
0100
0100
0100
0000
,
1000
1000
1000
0000
1000
1000
1000
0000
,
0010
0010
0010
0000
0100
0100
0100
0000
,
0100
0100
0100
0000
0001
0001
0001
0000
,
1000
1000
1000
0000
0110
0000
1001
0000
,
0110
0010
0010
0000
1000
0100
1000
0000
,
0001
0010
0001
0000
0010
0100
0010
0000
,
1000
0010
1000
0000
0100
0001
0100
0000
,
0010
1000
0010
0000
0001
0010
0001
0000
,
0100
0100
0100
0000
0010
1000
0010
0000
,
0100
0001
0100
0000
0010
0001
0010
0000
,
0001
0001
0001
0000
0010
0010
0010
0000
,
1000
1000
1000
0000
0100
0100
0100
0000
,
1001
0010
0100
0001
,
0100
0001
0010
0001
,
2010
0010
0010
0010
,
0001
0001
3001
0010
,
1001
0010
0100
1000
,
0001
0100
0010
0100
,
1002
1003
0210
0310
,
1100
0011
1001
1001
,
1010
0000
0100
0000
0001
0000
1000
0010
,
0100
0000
0001
0000
1000
0000
0001
0001
,
0001
0000
0100
0000
0010
0000
1000
0100
,
1000
0000
0010
0000
0100
0000
0010
0010
,
0010
0000
1000
0000
1000
0000
1000
0001
,
0001
0000
0100
0000
0010
0000
0001
1000
,
1000
0000
0010
0000
0100
0000
0010
0010
,
1000
0000
0100
0000
0001
0000
0001
0001
,
1001
0000
1000
0000
0010
0000
0100
0010
,
0100
0000
0001
0000
1000
0000
0010
0001
,
0010
0000
1000
0000
0001
0000
0100
0010
,
0100
0000
0001
0000
0010
0000
0100
0100
,
0100
0000
0010
0000
0100
0000
0001
0001
,
0001
0000
1000
0000
0010
0000
1000
0010
,
1002
1000
1000
1000
1000
1000
1000
1003
,
0110
0100
0100
0100
,
0001
1000
0001
0100
,
0010
0000
1000
0000
0010
0000
0100
0001
,
0100
0001
0010
0001
,
0100
0000
0010
0000
1000
0000
0010
0010
,
0001
0100
0010
0100
,
0001
0000
1000
0000
0100
0000
1000
1000
,
1000
0010
0100
0010
,
2001
0001
0001
3001
;

//---------------dance-single - Copied from----------------
#NOTES:
     dance-single:
     Copied from:
     Easy:
     5:
     0.396,0.456,0.144,0.055,0.000,232.000,13.000,5.000,0.000,0.000:
0000
0000
0000
0000
,
0100
0100
0100
0100
,
0010
0010
0010
0010
,
0100
0001
0010
1000
,
0010
1000
0001
0010
,
0010
0001
1000
0001
,
0010
0100
1000
0100
,
0100
0010
0001
1000
,
0001
1000
0001
0100
,
1000
0001
0010
0100
,
0001
0010
0001
0010
,
0010
0010
1000
1000
,
0100
0100
0001
0001
,
0010
0010
0100
0100
,
1000
1000
0001
0001
,
0100
0100
0100
0100
,
1000
1000
0001
0001
,
0001
0001
0010
0010
,
0100
0100
0001
0010
,
1001
1000
0100
0100
,
0010
0010
1000
1000
,
0100
0100
0001
0001
,
1000
1000
0010
0010
,
0001
0001
1000
1000
,
0001
0001
1000
1000
,
0010
0010
1000
1000
,
0100
0100
0001
0001
,
0110
1000
0001
0010
,
0001
0010
1000
0010
,
1200
1000
1000
1000
,
0010
0010
0310
1000
,
0110
1000
0001
0100
,
0010
0001
1000
0001
,
0120
0130
1002
1003
,
0101
1000
0110
0010
,
1100
0001
0010
0100
,
0001
0010
0100
0010
,
0010
0001
1000
0100
,
0100
1000
0001
1000
,
1000
0100
0100
0100
,
0010
0001
1000
0010
,
0100
1000
0001
1000
,
0100
0001
0010
0010
,
0110
0100
1000
0001
,
0001
0010
0100
1000
,
1000
0100
0010
0001
,
0001
0010
1000
0001
,
0001
1000
0001
0010
,
0010
0100
1000
0100
,
0120
0000
0100
0000
0100
0000
0100
0030
,
1001
0001
0001
0001
,
0010
0100
0010
0001
,
1000
0100
1000
0001
,
0001
0010
1000
0010
,
0001
1000
0100
1000
,
0010
0001
1000
0001
,
0010
0100
0001
0100
,
0100
1000
0001
1000
,
0210
0010
0010
0310
;

//---------------dance-single - Copied from Copied f----------------
#NOTES:
     dance-single:
     Copied from Copied f:
     Beginner:
     3:
     0.211,0.326,0.133,0.067,0.000,115.000,12.000,6.000,0.000,0.000:
0000
0000
0000
0000
,
0100
0000
0100
0000
,
0001
0000
0001
0000
,
0100
0000
0001
0000
,
0001
0000
0010
0000
,
0001
0000
1000
0000
,
0001
0000
1000
0000
,
0100
0000
0010
0000
,
0010
0000
0010
0000
,
1000
0000
0001
0000
,
0010
0000
0010
0000
,
0001
0000
1000
0000
,
0100
0000
0010
0000
,
0001
0000
0100
0000
,
1000
0000
0010
0000
,
0100
0000
0100
0000
,
1000
0000
0010
0000
,
0010
0000
0001
0000
,
0100
0000
0010
0000
,
1010
0000
0100
0000
,
0001
0000
1000
0000
,
0100
0000
0010
0000
,
1000
0000
0001
0000
,
0010
0000
1000
0000
,
0010
0000
1000
0000
,
0001
0000
1000
0000
,
0100
0000
0010
0000
,
0101
0000
0010
0000
,
0010
0000
1000
0000
,
1200
0000
1000
0000
,
0001
0000
0301
0000
,
0101
0000
0010
0000
,
0001
0000
1000
0000
,
0102
0003
1020
0030
,
0110
0000
0100
0000
,
1100
0000
0001
0000
,
0010
0000
0100
0000
,
0001
0000
1000
0000
,
0100
0000
0010
0000
,
1000
0000
0100
0000
,
0001
0000
1000
0000
,
0100
0000
0010
0000
,
0100
0000
0001
0000
,
0101
0000
1000
0000
,
0010
0000
0100
0000
,
1000
0000
0001
0000
,
0010
0000
1000
0000
,
0010
0000
0010
0000
,
0001
0000
1000
0000
,
0102
0000
0000
0000
0100
0000
0000
0003
,
1010
0000
0010
0000
,
0001
0000
0001
0000
,
1000
0000
1000
0000
,
0010
0000
1000
0000
,
0010
0000
0100
0000
,
0001
0000
1000
0000
,
0001
0000
0010
0000
,
0100
0000
0010
0000
,
0202
0000
0000
0303
;
